เครื่องมือ สถิติฟอรั่ม ช่วยเหลือ

  • 1981เข้าชม
  • 4ตอบกลับ

[Mini-HD] Spooky Buddies : สปู้กกี้ บั๊ดดี้ แก๊งน้องหมาป่วนฮัลโลวีน (2011) [720p]-[พากย์:ไทย/อังกฤษ]

เพศ : ไม่มีเพศ !

โพสต์ : 667

สำคัญ : 0

เงิน : 1362
ความดี : 4
เครดิต : 1332
จิตพิสัย: 0
ออนไลน์ : 403 ชม



เรื่องย่อ
แก๊ง น้องหมาสุดน่ารักจากดิสนีย์ยกฝูงกลับมาในภาพยนตร์เรื่องใหม่ที่พากันผจญภัย ข้ามเมืองสู่คฤหาสน์ลึกลับที่บางสิ่งน่ากลั๊วน่ากลัวรออยู่ ด้วยความช่วยเหลือจากเพื่อนใหม่ที่ใครก็คาดไม่ถึง อาทิ ผีผู้เป็นมิตร การผจญภัยครั้งนี้จึงมีแต่เรื่องสนุ้กสนุก...บรู้วววว!!!


ในช่วงเวลาอันแสนคับขัน แก๊งบั๊ดดี้และเพื่อนใหม่ ปิ๊ป  ,   เซลดา  ,   รอดนี่ย์ และ สคิป ต้องหยุดจอมขมังเวทย์ วอร์วิค เพื่อปกป้องโลกให้พ้นภัยจากแผนอันร้ายกาจของเขา


เต็มอิ่มไปกับแอ็คชั่น มุขตลก และการผจญภัยสุดตื่นเต้นที่เต็มไปด้วยมิตรภาพและการร่วมมือกันของเหล่าน้อง หมา และดูกันได้สนุกสำหรับทุกคนในครอบครัว


General                        : Spooky Buddies_Putlockerz.tk.mkv
Format                          : Matroska
File size                        : 3.02 GiB
Duration                        : 1h 28mn
Overall bit rate                : 4 894 Kbps
Movie name                      : Spooky Buddies
Encoded date                    : UTC 2011-10-19 04:16:45
Writing application              : mkvmerge v3.4.0 ( Rapunzel ) built on May 15 2010 09:38:20
Writing library                  : libebml v0.8.0 + libmatroska v0.9.0


Video
ID                              : 1
Format                          : AVC
Format/Info                      : Advanced Video Codec
Format profile                  : High@L5.1
Format settings  ,   CABAC          : Yes
Format settings  ,   ReFrames        : 3 frames
Format settings  ,   GOP            : M=4  ,   N=32
Muxing mode                      : Container profile=Unknown@5.1
Codec ID                        : V_MPEG4/ISO/AVC
Duration                        : 1h 28mn
Bit rate                        : 4 116 Kbps
Width                            : 1 280 pixels
Height                          : 720 pixels
Display aspect ratio            : 16:9
Frame rate                      : 23.976 fps
Color space                      : YUV
Chroma subsampling              : 4:2:0
Bit depth                        : 8 bits
Scan type                        : Progressive
Bits/(Pixel*Frame)              : 0.186
Stream size                      : 2.49 GiB (82%)
Writing library                  : x264 core 114 r1924 08d04a4
Encoding settings                : cabac=1 / ref=3 / deblock=1:6:6 / analyse=0x3:0x133 / me=tesa / subme=10 / psy=1 /
psy_rd=1.00:0.00 / mixed_ref=1 / me_range=16 / chroma_me=1 / trellis=2 / 8x8dct=1 / cqm=0 / deadzone=21  ,  11 /
fast_pskip=1 / chroma_qp_offset=-2 / threads=9 / sliced_threads=0 / nr=0 / decimate=1 / interlaced=0 / constrained
_intra=0 / bframes=3 / b_pyramid=0 / b_adapt=1 / b_bias=0 / direct=1 / weightb=1 / open_gop=0 / weightp=2 / keyint
=240 / keyint_min=24 / scenecut=40 / intra_refresh=0 / rc_lookahead=40 / rc=2pass / mbtree=1 / bitrate=4116 /
ratetol=1.0 / qcomp=0.60 / qpmin=0 / qpmax=69 / qpstep=4 / cplxblur=20.0 / qblur=0.5 / vbv_maxrate=25000 /
vbv_bufsize=25000 / nal_hrd=vbr / ip_ratio=1.40 / aq=1:1.00


Audio #1
ID                              : 2
Format                          : AC-3
Format/Info                      : Audio Coding 3
Mode extension                  : CM (complete main)
Codec ID                        : A_AC3
Duration                        : 1h 28mn
Bit rate mode                    : Constant
Bit rate                        : 384 Kbps
Channel(s)                      : 2 channels
Channel positions                : Front: L R
Sampling rate                    : 48.0 KHz
Stream size                      : 243 MiB (8%)
Language                        : Thai


Audio #2
ID                              : 3
Format                          : AC-3
Format/Info                      : Audio Coding 3
Mode extension                  : CM (complete main)
Codec ID                        : A_AC3
Duration                        : 1h 28mn
Bit rate mode                    : Constant
Bit rate                        : 384 Kbps
Channel(s)                      : 6 channels
Channel positions                : Front: L C R  ,   Side: L R  ,   LFE
Sampling rate                    : 48.0 KHz
Stream size                      : 243 MiB (8%)
Language                        : English


Text #1
ID                              : 4
Format                          : VobSub
Codec ID                        : S_VOBSUB
Codec ID/Info                    : The same subtitle format used on DVDs
Language                        : English


Text #2
ID                              : 5
Format                          : VobSub
Codec ID                        : S_VOBSUB
Codec ID/Info                    : The same subtitle format used on DVDs
Language                        : Thai










DOWNLOAD : http://www.putlocker.com/file/0F313C97207CFB4D
CREDIT : Coming together.Happy to share. [ทดสอบโหลดดูแล้ว ดูได้ 100%]




ให้คะแนนบทความประเภท โพสต์ ตามความรู้สึกคุณ

สุดยอด

เศร้า

น่าตลก

แฮปปี้

โกรธ

เบื่อ

ผวา
แบ่งปัน :

บทความที่เกี่ยวข้อง

เพศ : ไม่มีเพศ !

โพสต์ : 11

สำคัญ : 0

เงิน : 18
ความดี : 0
เครดิต : 16
จิตพิสัย: 0
ออนไลน์ : 16 ชม
ขอบคุณคับ
เพศ : ไม่มีเพศ !

โพสต์ : 175

สำคัญ : 0

เงิน : 186
ความดี : 0
เครดิต : 180
จิตพิสัย: 0
ออนไลน์ : 173 ชม
goodgood
เพศ : ไม่มีเพศ !

โพสต์ : 54

สำคัญ : 0

เงิน : 59
ความดี : 0
เครดิต : 59
จิตพิสัย: 0
ออนไลน์ : 4 ชม
trhanks
เพศ : ไม่มีเพศ !

โพสต์ : 54

สำคัญ : 0

เงิน : 59
ความดี : 0
เครดิต : 59
จิตพิสัย: 0
ออนไลน์ : 4 ชม
เฉพาะตอบกลับของผู้โพสต์ 4#  โพสต์เมื่อ: 2011-12-01
trhanks
รายละเอียดไฟล์แนบ
กล่องตอบกลับด่วน

คุณไม่มีสิทธิ์ใช้งานส่วนนี้, กรุณาเข้าสู่ระบบ หรือ ลงทะเบียน
สามารถอัพโหลดไฟล์แนบ สำหรับโพสได้